Kaaboo-2002-Hindi-DvDRip-XviD-AC3-5.1...Hon3y

  • Category Movies
  • Type Divx/Xvid
  • Language Hindi
  • Total size 1.4 GB
  • Uploaded By honey8ee
  • Downloads 195
  • Last checked 1 day ago
  • Date uploaded 4 years ago
  • Seeders 0
  • Leechers 0

Infohash : 1DAAF5CB3C95F17C6A4A4E46676791F91CC1D881



www.imdb.com/title/tt0490434/

Source : DVD9 [Thanks DUS]
Complete name : Kaaboo 2002 Hindi DvDRip XviD AC3 5.1...Hon3y
Format : AVI
Format/Info : Audio Video Interleave
File size : 1.45 GiB
Duration : 2h 15mn
Overall bit rate : 1 529 Kbps

Video
Format : MPEG-4 Visual
Format profile : Advanced [email protected]
Format settings, BVOP : 1
Format settings, QPel : No
Format settings, GMC : No warppoints
Format settings, Matrix : Default (H.263)
Muxing mode : Packed bitstream
Codec ID : XVID
Duration : 2h 15mn
Bit rate : 1 297 Kbps
Width : 704 pixels
Height : 352 pixels
Display aspect ratio : 2.000
Frame rate : 23.976 fps
Chroma subsampling : 4:2:0
Bit depth : 8 bits
Scan type : Progressive
Compression mode : Lossy
Stream size : 1.23 GiB (85%)
Writing library : XviD 1.2.1

Audio
Format : AC-3
Format/Info : Audio Coding 3
Format settings, Endianness : Big
Codec ID : 2000
Duration : 2h 15mn
Bit rate mode : Constant
Bit rate : 224 Kbps
Channel count : 3 channels
Sampling rate : 48.0 KHz
Bit depth : 16 bits
Compression mode : Lossy
Stream size : 217 MiB (15%)
Title : [email protected] [Rana.Aqib]














I am on FaceBook, Post Your suggestion, and find upcoming Releases at FB Page so keep in touch !!!

Files:

  • Kaaboo 2002 Hindi DvDRip XviD AC3 5.1....Hon3y.avi (1.4 GB)

There are currently no comments. Feel free to leave one :)

Code:

  • udp://tracker.openbittorrent.com:80/announce
  • udp://10.rarbg.com/announce
  • udp://tracker.yify-torrents.com/announce
  • udp://ipv4.tracker.harry.lu:80/announce
  • udp://11.rarbg.com:80/announce
  • udp://tracker.publicbt.com:80/announce
  • udp://9.rarbg.com:2710/announce
  • udp://tracker.zond.org:80/announce
  • udp://tracker.token.ro:80/announce
  • udp://bt.rghost.net:80/announce
  • udp://tracker.publichd.eu/announce
  • udp://open.demonii.com:1337/announce
  • http://tracker.coppersurfer.tk:6969/announce
  • udp://pow7.com:80/announce
  • udp://exodus.desync.com:6969
SitemapLee Patrick | Русский | One Piece 695 Romantic | Watch This Link! | La Rue chaude