An Interview with God 2018 1080p WEB-DL DD 5.1 x264 [MW]

  • Category Movies
  • Type HD
  • Language English
  • Total size 1.6 GB
  • Uploaded By moviezworldz
  • Downloads 68
  • Last checked 2 months ago
  • Date uploaded 3 months ago
  • Seeders 15
  • Leechers 3

An Interview with God

Drama

An up-and-coming journalist finds his world and faith increasingly challenged when he's granted the interview of a lifetime – with someone who claims to be God.

Infohash : A80F46712EDDC554EE45A4DD9F7ED250EA32F54B






General
Format : Matroska
Format version : Version 4 / Version 2
File size : 1.59 GiB
Duration : 1 h 37 min
Overall bit rate : 2 340 kb/s

Video
ID : 1
Format : AVC
Format/Info : Advanced Video Codec
Format profile : [email protected]
Format settings : CABAC / 4 Ref Frames
Format settings, CABAC : Yes
Format settings, RefFrames : 4 frames
Codec ID : V_MPEG4/ISO/AVC
Duration : 1 h 37 min
Bit rate : 2 000 kb/s
Width : 1 920 pixels
Height : 796 pixels
Display aspect ratio : 2.40:1
Frame rate mode : Constant
Frame rate : 23.976 (24000/1001) FPS
Color space : YUV
Chroma subsampling : 4:2:0
Bit depth : 8 bits
Scan type : Progressive
Bits/(Pixel*Frame) : 0.055
Stream size : 1.33 GiB (84%)
Writing library : x264 core 155 r2901 7d0ff22
Default : Yes
Forced : No

Audio
ID : 2
Format : AC-3
Format/Info : Audio Coding 3
Codec ID : A_AC3
Duration : 1 h 37 min
Bit rate mode : Constant
Bit rate : 384 kb/s
Channel(s) : 6 channels
Channel positions : Front: L C R, Side: L R, LFE
Sampling rate : 48.0 kHz
Frame rate : 31.250 FPS (1536 SPF)
Bit depth : 16 bits
Compression mode : Lossy
Stream size : 267 MiB (16%)
Language : English
Service kind : Complete Main
Default : Yes
Forced : No

Text
ID : 3
Format : UTF-8
Codec ID : S_TEXT/UTF8
Codec ID/Info : UTF-8 Plain Text
Duration : 1 h 35 min
Bit rate : 72 b/s
Count of elements : 1467
Stream size : 50.4 KiB (0%)
Language : English
Default : Yes
Forced : No


Click To Enlarge Image






Files:

An Interview with God 2018 1080p WEB-DL DD 5.1 x264 [MW]
  • An Interview with God 2018 1080p WEB-DL DD 5.1 x264 [MW].mkv (1.6 GB)

There are currently no comments. Feel free to leave one :)

Code:

  • udp://tracker.coppersurfer.tk:6969/announce
  • udp://tracker.pirateparty.gr:6969/announce
  • udp://tracker.coppersurfer.tk:6969/announce
  • udp://tracker.tiny-vps.com:6969/announce
  • udp://9.rarbg.me:2740/announce
  • udp://9.rarbg.to:2790/announce
  • udp://public.popcorn-tracker.org:6969/announce
  • udp://tracker.vanitycore.co:6969/announce
  • udp://tracker.opentrackr.org:1337/announce
  • udp://open.stealth.si:80/announce
SitemapThe Faces of (2018) | Мыло | Girls’ Talk - Friday - Girls’ Talk - 呃Like 派出所 - Episode 94 Bomb Girls | allmynotes | Deja Vu (Cantonese) - 回到愛以前Deja Vu (Cantonese)